[Login] or [Signup]
Login
Username:
Password:
[Signup]
[Recover Account]


Poll


You must be logged in to view polls



Torrent Details For "Insidious The Last Key 2018 720p BRRip AAC 2 0 x264 [MW]"

Insidious The Last Key 2018 720p BRRip AAC 2 0 x264 [MW]

Download this torrent | Magnet Download
Health:
Seeds: 120
Leechers: 143
Completed: 371 
Last Checked: 20-03-2018 15:45:01
External Torrent
Update Stats
Download Magnet


Poster
No poster


Watch-Free-HD     Download

Details
Name:Insidious The Last Key 2018 720p BRRip AAC 2 0 x264 [MW]
Description:


 

General
Format                                   : Matroska
Format version                           : Version 4 / Version 2
File size                                : 865 MiB
Duration                                 : 1 h 43 min
Overall bit rate                         : 1 170 kb/s

Video
ID                                       : 1
Format                                   : AVC
Format/Info                              : Advanced Video Codec
Format profile                           : [email protected]
Format settings                          : CABAC / 4 Ref Frames
Format settings, CABAC                   : Yes
Format settings, RefFrames               : 4 frames
Codec ID                                 : V_MPEG4/ISO/AVC
Duration                                 : 1 h 43 min
Bit rate                                 : 1 050 kb/s
Width                                    : 1 280 pixels
Height                                   : 540 pixels
Display aspect ratio                     : 2.40:1
Frame rate mode                          : Constant
Frame rate                               : 23.976 (24000/1001) FPS
Color space                              : YUV
Chroma subsampling                       : 4:2:0
Bit depth                                : 8 bits
Scan type                                : Progressive
Bits/(Pixel*Frame)                       : 0.063
Stream size                              : 770 MiB (89%)
Writing library                          : x264 core 148 r2708 86b7198
Default                                  : Yes
Forced                                   : No

Audio
ID                                       : 2
Format                                   : AAC
Format/Info                              : Advanced Audio Codec
Format profile                           : HE-AAC / LC
Format settings                          : Explicit
Codec ID                                 : A_AAC-2
Duration                                 : 1 h 43 min
Bit rate                                 : 127 kb/s
Channel(s)                               : 2 channels
Channel positions                        : Front: L R
Sampling rate                            : 48.0 kHz / 24.0 kHz
Frame rate                               : 23.438 FPS (1024 SPF)
Compression mode                         : Lossy
Stream size                              : 93.7 MiB (11%)
Language                                 : English
Default                                  : Yes
Forced                                   : No



             
Category:Movies > 720P Bluray
Lang:English  English
Total Size:865.21 MB
Info Hash:9b5b25952d4e6c2bb6dc70b28c53d2d17a1fdd9d
Added By:Freaky
Date Added:20-03-2018 09:14:39
Views:391
Hits:23

Download Torrent

Ratings:Not Yet Rated (Log in to rate it)


Tracker:
udp://tracker.pirateparty.gr:6969/announce

This Torrent also has backup trackers
URLSeedersLeechersCompleted
http://tracker.opentrackr.org/announce000
http://tracker.vanitycore.co:6969/announce131429
http://public.popcorn-tracker.org:6969/announce131331


File List: 


Comments

No comments still posted

Powered by 10 Hamsters v2-svn -|- Page Generated In 3.810952 secs.
-|- RSS FEED
Theme By: Nikkbu