[Login] or [Signup]
Login
Username:
Password:
[Signup]
[Recover Account]


Poll


You must be logged in to view polls



Torrent Details For "Sarkar 3 2017 Hindi Untouched 720p WEB-DL x264 MSubS - Hon3y [Exclusive]"

Sarkar 3 2017 Hindi Untouched 720p WEB-DL x264 MSubS - Hon3y [Exclusive]

Download this torrent | Magnet Download
Health:
Seeds: 4
Leechers: 0
Completed:
Last Checked: 07-04-2018 04:44:29
External Torrent
Update Stats
Download Magnet


Poster


Watch-Free-HD     Download

Details
Name:Sarkar 3 2017 Hindi Untouched 720p WEB-DL x264 MSubS - Hon3y [Exclusive]
Description:
Sarkar 3 2017 HIndi Untouched 720p WEB-DL x264 MSubS - Hon3y [Exclusive]

Source: Own @ Hon3yHD

Format                      : Matroska
Format version              : Version 4 / Version 2
File size                   : 2.90 GiB
Duration                    : 2 h 10 min
Overall bit rate            : 3 189 kb/s
Movie name                  : Sarkar 3 2017 - [email protected] @ Hon3yHD


Video
ID                          : 1
Format                      : AVC
Format/Info                 : Advanced Video Codec
Format profile              : [email protected]
Format settings, CABAC      : Yes
Format settings, ReFrames   : 4 frames
Codec ID                    : V_MPEG4/ISO/AVC
Duration                    : 2 h 10 min
Bit rate                    : 3 014 kb/s
Width                       : 1 280 pixels
Height                      : 720 pixels
Display aspect ratio        : 16:9
Frame rate mode             : Constant
Frame rate                  : 24.000 FPS


Audio
ID                          : 2
Format                      : AAC
Format/Info                 : Advanced Audio Codec
Format profile              : LC
Codec ID                    : A_AAC
Duration                    : 2 h 10 min
Bit rate                    : 192 kb/s
Channel(s)                  : 2 channels
Channel positions           : Front: L R
Sampling rate               : 48.0 kHz
Frame rate                  : 46.875 FPS (1024 spf)
Compression mode            : Lossy
Delay relative to video     : -43 ms
Stream size                 : 181 MiB (6%)
Language                    : Hindi
Default                     : Yes
Forced                      : No

Text #1
ID                          : 3
Format                      : UTF-8
Codec ID                    : S_TEXT/UTF8
Codec ID/Info               : UTF-8 Plain Text
Duration                    : 2 h 10 min
Bit rate                    : 43 b/s
Count of elements           : 1292
Stream size                 : 41.3 KiB (0%)
Language                    : English
Default                     : Yes
Forced                      : No

Text #2
ID                          : 4
Format                      : UTF-8
Codec ID                    : S_TEXT/UTF8
Codec ID/Info               : UTF-8 Plain Text
Duration                    : 2 h 10 min
Bit rate                    : 63 b/s
Count of elements           : 1292
Stream size                 : 60.3 KiB (0%)
Language                    : Arabic
Default                     : No
Forced                      : No

                 
Category:Movies > Bollywood
Lang:Hindi
Total Size:2.90 GB
Info Hash:bbbe10a9746409d0eee5f48d31626d9feea65128
Added By:Hon3y
Date Added:23-08-2017 08:12:14
Views:1,156
Hits:250

Download Torrent

Ratings:Not Yet Rated (Log in to rate it)


Tracker:
http://ipv4.tracker.harry.lu/announce

This Torrent also has backup trackers
URLSeedersLeechersCompleted
http://ipv4.tracker.harry.lu/announce040
http://ipv4.tracker.harry.lu:80/announce040
http://opentracker-milanesi.rhcloud.com/announce1130
http://t.nyaatracker.com/announce030
http://tracker.devil-torrents.pl:80/announce040
http://tracker.devil-torrents.pl/announce040
http://open.kickasstracker.com/announce100
http://opentracker-milanesi.rhcloud.com:80/announce1480
http://open.kickasstracker.com:443/announce100
http://opentracker-milanesi.rhcloud.com:443/announce65290
http://t.nyaatracker.com:80/announce030


File List: 


Comments

<< Previous      Next >>
1 - 3

[Report] Posted: 23-08-2017 at 16:21:57
logu020185



Uploaded: 0.00 B
Downloaded: 0.00 B
Ratio: ---

Good movie

[Report] Posted: 23-08-2017 at 18:53:04
Bhoot



Uploaded: 0.00 B
Downloaded: 0.00 B
Ratio: ---


nice one..   8o  :D   :D
Plz upload Kangana ranut movie Rajjo (2013)

[Report] Posted: 25-08-2017 at 06:53:17
Mery123



Uploaded: 0.00 B
Downloaded: 0.00 B
Ratio: ---

good movie i love this...

1 - 3
<< Previous      Next >>


Powered by 10 Hamsters v2-svn -|- Page Generated In 1.211419 secs.
-|- RSS FEED
Theme By: Nikkbu